Район 37 / Outpost 37 (2014) HDRip

Добавил: TuRaL123 / 25.Октябрь.2015 - 10:29:52 - Среда Категория: Боевик /Качество : (-HDRip-)
Скриншот Район 37 / Outpost 37 (2014) HDRip

Оригинальное название: Outpost 37 

Название: Район 37 

Жанр: Фантастикабоевиктриллер

Режиссёрр: Джаббар Райсани 

Год: 2014



В ролях: Эдриан Пол, Рик Раванелло, Рейли МакКлендон, Дуглас Тейт, Джо Риган, Мэттью Холмс, Эндрю Дэволи, Свен Райгрок, Брэндон Оре, Николас Расенти 







…Исследуя события - инопланетного вторжения, команда документалистов следует за элитным подразделением морских пехотинцев...



Страна: Великобритания, ЮАР

Студия: ltitude Film Entertainment, Bigscope Films, Out of Africa Entertainment 

Продолжительность: 01:32:09

Перевод: Профессиональный ( многоголосый )

Кодек: AVI ( XviD ) 

Качество: HDRip 

Видео: 1729 kb/s | 720x384

Звук: AC3, 384 kb/s ( 6 ch )

Субтитры: Отсутствуют

 

 


 


[spolier=Mediainfo]

Полное имя : Район 37 Outpost 37 (2014) HDRipRayon.37.2014.P.HDRip.6ch.1400MB.avi

Формат : AVI

Формат/Информация : Audio Video Interleave

Размер файла : 1,37 Гбайт

Продолжительность : 1 ч. 32 м.

Общий поток : 2123 Кбит/сек

Программа кодирования : VirtualDubMod 1.5.10.2 (build 2540/release)

Библиотека кодирования : VirtualDubMod build 2540/release



Видео

Идентификатор : 0

Формат : MPEG-4 Visual

Профиль формата : Advanced Simple@L5

Параметр BVOP формата : 2

Параметр QPel формата : Нет

Параметр GMC формата : Без точки перехода

Параметр матрицы формата : Default (MPEG)

Идентификатор кодека : XVID

Идентификатор кодека/Подсказка : XviD

Продолжительность : 1 ч. 32 м.

Битрейт : 1730 Кбит/сек

Ширина : 720 пикселей

Высота : 384 пикселя

Соотношение сторон : 1,85:1

Частота кадров : 23,976 кадра/сек

Цветовое пространство : YUV

Субдискретизация насыщенности : 4:2:0

Битовая глубина : 8 бит

Тип развёртки : Прогрессивная

Метод сжатия : С потерями

Бит/(Пиксели*Кадры) : 0.261

Размер потока : 1,11 Гбайт (81%)

Библиотека кодирования : XviD 1.2.1 (UTC 2008-12-04)



Аудио

Идентификатор : 1

Формат : AC-3

Формат/Информация : Audio Coding 3

Расширение режима : CM (complete main)

Параметр Endianness формата : Big

Идентификатор кодека : 2000

Продолжительность : 1 ч. 32 м.

Вид битрейта : Постоянный

Битрейт : 384 Кбит/сек

Каналы : 6 каналов

Расположение каналов : Front: L C R, Side: L R, LFE

Частота : 48,0 КГц

Битовая глубина : 16 бит

Метод сжатия : С потерями

Размер потока : 253 Мбайт (18%)

Выравнивание : Разделение по промежуткам

Продолжительность промежутка : 42 мс. (1,00 видеокадр)

Время предзагрузки промежутка : 500 мс.





 
[/spoiler]

 

 

 

 


 

 

 

                                                         Скриншоты:

 

 

 


 

 

 

    

 

Скачать бесплатно с торрента

Рекламный блок


Новые Фильмы на сайте

Кальмар и кит / The Squid and the Whale (2005) BDRip от Sem-te
Глава эксцентричной бруклинской семьи в свое время был известным писателем, однако сейчас он вынужден преподавать. Когда его жена открывает в себе писате...
Уличные коты / Alleycats (2016) HDRip | L
Когда курьер на велосипеде Крис стал свидетелем чего-то похожего на убийство, его первой инстинктивной реакцией было поскорее бежать оттуда. Но потом его...
Пит и его дракон / Pete's Dragon (2016) HDRip | Лицензия
В течение многих лет Мистер Мичем забавлял местных детишек сказочными историями о свирепом драконе, обитающим на севере, глубоко в лесах. Для его дочери ...
Зачинщики / Masterminds (2016) TS | D
Бывший клерк банка вместе со своей любовницей проворачивает дерзкое ограбление инкассаторской машины и забирает 17 миллионов баксов. Но по неопытности пр...

Поделись :)

Теги материала

Комментарии